layout

Orange Is The New Black S01E02 x264 [MKV,AC3] Ehhhh

Torrent ID# 3CDC807308576AB113380F0E5E1584C50C6C87E1
NA
Added 2013-07-12 20:14:53   
Size 438.74 MiB in 10 files
Share
Seeders & Leechers 175/48
Category Video > HD - TV shows
Orange Is The New Black S01E02 x264 [MKV,AC3] Ehhhh
Description
image
image
Orange Is the New Black revolves around Piper Chapman (Schilling), a New York woman, who is sent to a women's federal prison for possessing a suitcase full of drug money for Alex Vause (Prepon), an international drug smuggler and Chapman's one-time lover. Sentenced to serve a fifteen-month sentence, Chapman must survive the hardships of prison life, as she may have to be a different person to do so.

Creator Jenji Kohan hasn't just given us an intriguingly compromised lead character, she's also created an entire world, an alternately sly and sad pressure cooker that offers an enticing range of complicated relationships and unstable power dynamics. But what may be most impressive is the fact that Kohan and her writers have fun with a whole array of "Women in Prison" tropes while allowing many of the central characters to have dignity, depth and even moments of pathos. This mixture of melodrama, subversive comedy and drama could have been a big ol' mess, but "Orange" ends up a rich, flavorful stew.

Series Cast

Taylor Schilling... Piper Chapman / ... (13 episodes, 2013)
Jason Biggs ... Larry Bloom (13 episodes, 2013)
Michelle Hurst ... Miss Claudette Pelage (13 episodes, 2013)
Kate Mulgrew ... Galina 'Red' Reznikov (13 episodes, 2013)
Natasha Lyonne ... Nicky Nichols (13 episodes, 2013)
Laura Prepon ... Alex Vause (13 episodes, 2013)
Michael Harney ... Sam Healy (13 episodes, 2013)
Lea DeLaria ... Carrie 'Big Boo' Black (13 episodes, 2013)
Taryn Manning (13 episodes, 2013)
Dascha Polanco ... Dayanara Diaz (13 episodes, 2013)
Samira Wiley ... Poussey Washington (13 episodes, 2013)
Uzo Aduba ... Suzanne 'Crazy Eyes' Warren (12 episodes, 2013)
Joel Garland ... O'Neill (12 episodes, 2013)
Matt McGorry ... John Bennett (12 episodes, 2013)
Yael Stone ... Lorna Morello (12 episodes, 2013)
Samantha Suzanne Sweed ... Prison Inmate / ... (11 episodes, 2013)
Yael Gonen ... Inmate - core (10 episodes, 2013)
Vicky Jeudy ... Janae Watson (10 episodes, 2013)
Beth Katehis ... Inmate Beth / ... (10 episodes, 2013)
Emma Myles ... Leanne Taylor (10 episodes, 2013)
Elizabeth Rodriguez ... Aleida Diaz (10 episodes, 2013)
Nick Sandow ... Joseph 'Joe' Caputo (10 episodes, 2013)
image
General

Format : Matroska
Format version : Version 4 / Version 2
File size : 435 MiB
Duration : 50mn 37s
Overall bit rate : 1 201 Kbps
Encoded date : UTC 2013-07-12 17:36:01
Writing application : mkvmerge v6.2.0 ('Promised Land') built on Apr 28 2013 12:22:01
Writing library : libebml v1.3.0 + libmatroska v1.4.0

Video
ID : 1
Format : AVC
Format/Info : Advanced Video Codec
Format profile : High@L4.1
Format settings, CABAC : Yes
Format settings, ReFrames : 14 frames
Codec ID : V_MPEG4/ISO/AVC
Duration : 50mn 37s
Bit rate : 1 010 Kbps
Width : 1 280 pixels
Height : 720 pixels
Display aspect ratio : 16:9
Frame rate mode : Constant
Frame rate : 23.976 fps
Color space : YUV
Chroma subsampling : 4:2:0
Bit depth : 8 bits
Scan type : Progressive
Bits/(Pixel*Frame) : 0.046
Stream size : 357 MiB (82%)
Writing library : x264 core 130 r2273 b3065e6

Audio
ID : 2
Format : AC-3
Format/Info : Audio Coding 3
Mode extension : CM (complete main)
Format settings, Endianness : Big
Codec ID : A_AC3
Duration : 50mn 37s
Bit rate mode : Constant
Bit rate : 192 Kbps
Channel(s) : 2 channels
Channel positions : Front: L R
Sampling rate : 48.0 KHz
Bit depth : 16 bits
Compression mode : Lossy
Stream size : 69.5 MiB (16%)
Default : Yes
Forced : No