layout

Avengers Assemble S2E09 The Dark Avengers HDTV Pimp4003

Torrent ID# 945063079023560759BE1537A6426E2E76A43089
NA
Added 2015-02-02 11:12:29   
Size 57.34 MiB in 1 files
Share
Seeders & Leechers 23/1
Category Video > TV shows
Avengers Assemble S2E09 The Dark Avengers HDTV Pimp4003
Description
http://i.imgur.com/SpsuXOR.png

[u][b][color=green]PIMP THE ONE AND ONLY PIMPSTER.....PRESENTS[/color][/b][/u]

Avengers Assemble S2E09 The Dark Avengers HDTV Pimp4003
 
http://www.imdb.com/title/tt2455546

The further adventures of the Marvel Universe's mightiest general membership superhero team.

Stars: Adrian Pasdar, Fred Tatasciore, Roger Craig Smith |See full cast and crew ┬╗

Video
ID                                       : 201
Format                                   : AVC
Format/Info                              : Advanced Video Codec
Format profile                           : [email protected]
Format settings, CABAC                   : Yes
Format settings, ReFrames                : 4 frames
Codec ID                                 : avc1
Codec ID/Info                            : Advanced Video Coding
Duration                                 : 21mn 44s
Source duration                          : 21mn 44s
Bit rate                                 : 301 Kbps
Maximum bit rate                         : 1 211 Kbps
Width                                    : 640 pixels
Height                                   : 356 pixels
Display aspect ratio                     : 16:9
Original display aspect ratio            : 16:9
Frame rate mode                          : Constant
Frame rate                               : 22.500 fps
Color space                              : YUV
Chroma subsampling                       : 4:2:0
Bit depth                                : 8 bits
Scan type                                : Progressive
Bits/(Pixel*Frame)                       : 0.059
Stream size                              : 46.8 MiB (82%)
Source stream size                       : 46.8 MiB (82%)
Writing library                          : x264 core 132
Encoding settings                        : cabac=1 / ref=1 / deblock=1:0:0 / analyse=0x3:0x113 / me=hex / subme=2 / psy=1 / psy_rd=1.00:0.00 / mixed_ref=0 / me_range=16 / chroma_me=1 / trellis=0 / 8x8dct=1 / cqm=0 / deadzone=21,11 / fast_pskip=1 / chroma_qp_offset=0 / threads=24 / lookahead_threads=2 / sliced_threads=0 / nr=0 / decimate=1 / interlaced=0 / bluray_compat=0 / constrained_intra=0 / bframes=3 / b_pyramid=2 / b_adapt=1 / b_bias=0 / direct=1 / weightb=1 / open_gop=0 / weightp=1 / keyint=60 / keyint_min=6 / scenecut=40 / intra_refresh=0 / rc_lookahead=10 / rc=crf / mbtree=1 / crf=25.0 / qcomp=0.60 / qpmin=0 / qpmax=69 / qpstep=4 / ip_ratio=1.40 / aq=1:1.00
Tagged date                              : UTC 2015-02-01 18:31:42

Audio
ID                                       : 101
Format                                   : AAC
Format/Info                              : Advanced Audio Codec
Format profile                           : LC
Codec ID                                 : 40
Duration                                 : 21mn 43s
Bit rate mode                            : Variable
Bit rate                                 : 64.2 Kbps
Maximum bit rate                         : 101 Kbps
Channel(s)                               : 2 channels
Channel positions                        : Front: L R
Sampling rate                            : 48.0 KHz
Compression mode                         : Lossy
Stream size                              : 9.97 MiB (17%)
Language                                 : English
Encoded date                             : UTC 2015-02-01 18:31:42
Tagged date                              : UTC 2015-02-01 18:31:42
 
http://i.imgur.com/BuM98dG.png 
http://i.imgur.com/Z55li20.png 
http://i.imgur.com/ABi2sPq.png