Torrent ID# C106CE69E3D8965A91E3672414A6ED4E31106C95
Added 2015-04-14 06:17:19   
Size 1.51 GiB in 4 files
Seeders & Leechers 626/1331
Category Video > Movies

Beatrice Prior must confront her inner demons and continue her fight against a powerful alliance which threatens to tear her society apart with the help from others on her side.

Director: Robert Schwentke
Writers: Brian Duffield (screenplay), Akiva Goldsman (screenplay)
Stars: Shailene Woodley, Ansel Elgort, Theo James
Genres: Adventure | Sci-Fi | Thriller
Country: USA
Language: English


Thx Hive

CM8 Doing It Right The First Time


Video: Italian HD-Cam-Free
Audio: HQMic
thx m8ґs


tried to get a line for this great movie, but 2 weeks have past and nothing, looks like its not coming
the cam audio thats already out isnt even bearable. voices werent understandable, and helicopter noise, first 20mins unwatchable...

finally got a nice HQMic for this movie, all is clear and understandable, no noises, action and effects are good too.

what can you expect from this release is a nice video quality like on fast 7 and audio is even better than on my kingsman release(no phone is ringing-lol)
its def a good watch till a vod or retail comes out


Video was already very nice, the usual flicker which i mostly removed - around 90% i would say
couldnt do it completely or video woulda get hurt in the process.
added brightness,sharpness,contrast,smoother,noise filters and added saturation cause it was kinda pale and lowered red colourtone to get a normal skintone 
no one likes jaundice people lol :wink:
did around 5 different videos, this is the best of them.
Daylight scenes are more than bright enough, darker scenes are good to watch now too.


I played a lot with it, besides the usual cleaning process i played with EQ to get the best out of it,all is fine now
afterwards i synced the audio to my video, ofc everything is lipsync, as usual

its not gonna get better than this, unless a line pops up, which i doubt

Video: 720x352 @bitrate 1700 2pass
Audio: English HQ Mic Stereo @256
Sample: yes included

PS: there are so many good sources out, but i need good audio for them, 
      if you have a good mic audio or even line stereo for the following movies,dont hesitate to contact me 
      movies i need audio for are: CHAPPIE,JUPITER ASCENDING;CINDERELLA and LAZARUS Effect

Complete name                            : Insurgent.2015.HD-HQMic.XVID.AC3.HQ.Hive-CM8.avi
Format                                   : AVI
Format/Info                              : Audio Video Interleave
File size                                : 1.48 GiB
Duration                                 : 1h 47mn
Overall bit rate                         : 1 969 Kbps
Writing application                      : Nandub v1.0rc2
Writing library                          : Nandub build 1853/release

ID                                       : 0
Format                                   : MPEG-4 Visual
Format profile                           : Advanced Simple@L5
Format settings, BVOP                    : 2
Format settings, QPel                    : Yes
Format settings, GMC                     : No warppoints
Format settings, Matrix                  : Default (H.263)
Muxing mode                              : Packed bitstream
Codec ID                                 : XVID
Codec ID/Hint                            : XviD
Duration                                 : 1h 47mn
Bit rate                                 : 1 701 Kbps
Width                                    : 720 pixels
Height                                   : 352 pixels
Display aspect ratio                     : 2.045
Frame rate                               : 30.000 fps
Color space                              : YUV
Chroma subsampling                       : 4:2:0
Bit depth                                : 8 bits
Scan type                                : Progressive
Compression mode                         : Lossy
Bits/(Pixel*Frame)                       : 0.224
Stream size                              : 1.28 GiB (86%)
Writing library                          : XviD 1.2.1 (UTC 2008-12-04)

ID                                       : 1
Format                                   : AC-3
Format/Info                              : Audio Coding 3
Mode extension                           : CM (complete main)
Format settings, Endianness              : Big
Codec ID                                 : 2000
Duration                                 : 1h 47mn
Bit rate mode                            : Constant
Bit rate                                 : 256 Kbps
Channel(s)                               : 2 channels
Channel positions                        : Front: L R
Sampling rate                            : 48.0 KHz
Bit depth                                : 16 bits
Compression mode                         : Lossy
Stream size                              : 198 MiB (13%)
Alignment                                : Split accross interleaves
Interleave, duration                     : 33 ms (1.00 video frame)
Interleave, preload duration             : 500 ms