layout

The I.T Crowd Season 1 - 4 Complete (MKV) - YIFY

Torrent ID# DED023C45DDF23AF0449D1E86340D5DD1B89BB9E
NA
Added 2010-08-05 13:28:24   
Size 2.47 GiB in 25 files
Share
Seeders & Leechers 13/7
Category Video > TV shows
The I.T Crowd Season 1 - 4 Complete (MKV) - YIFY
Description
http://www.imdb.com/title/tt0487831/[Rating 8.9]


All are HDTV episodes which have been converted to MKV compression to reduce size (Use VLC player for these) Perfect quality!

General
Format : Matroska
File size : 104 MiB
Duration : 23mn 5s
Overall bit rate : 631 Kbps

Video
Format/Info : Advanced Video Codec
Duration : 23mn 5s
Bit rate : 492 Kbps
Width : 640 pixels
Height : 352 pixels
Display aspect ratio : 16:9
Frame rate : 25.000 fps
Resolution : 24 bits
Colorimetry : 4:2:0
Stream size : 81.2 MiB (78%)

Audio
Format : MPEG Audio
Format profile : Layer 3
Nominal bit rate : 128 Kbps
Channel(s) : 2 channels
Sampling rate : 48.0 KHz
Resolution : 16 bits
Stream size : 20.9 MiB (20%)
Language : English




Seed Comment and Enjoy