layout

Game of Thrones (Trailer+Preview MKV+AVI NL Subs) Hornigold TBS

Torrent ID# F7618537AE5FB4075DB6992574101C31E94B4777
NA
Added 2011-04-08 21:54:33   
Size 379.01 MiB in 7 files
Share
Seeders & Leechers 1/0
Category Video > TV shows
Game of Thrones (Trailer+Preview MKV+AVI NL Subs) Hornigold TBS
Description
Camelot Trailer en Preview met NL Subs

Verenigde Staten ~ geschreven door George R.R. Martin ~ met Isaac Hempstead-Wright, Charles Dance, John Bradley, Ron Donachie, e.a.

Game Of Thrones is gebaseerd op de romans uit de reeks A Song Of Ice And Fire van schrijver George R. R. Martin en combineert typische middeleeuwse elementen met fantasy. De serie volgt enkele vooraanstaande families die strijden om de ijzeren troon die hen de controle geeft over het gebied Westeros. Naast Sean Bean bestaat de cast uit onder meer Mark Addy, Alfie Allen, Emilia Clarke en Nikolaj Coster-Waldau. De scenaristen omschreven de serie als “The Sopranos in Middle-Earth”.

Bestandsformaat: .MKV en .AVI
Bestandsgrootte: 278 MB en 100 MB
Taal: Engels
Ondertitelingen: Nederlands ~ Nederlands custom door xppx en Pinkgaai (in te stellen)
Categorie : Trailer en Preview
Formaat : NVT
Bron : NVT
Menu: Nee
Extra's: Nee
Genre : Drama ~Fantasie
Weblink : http://www.imdb.com/title/tt0944947/

~~~~~~~~~~~~~~~~~~~~~~
USA ~ written by George R.R. Martin ~ with Isaac Hempstead-Wright, Charles Dance, John Bradley, Ron Donachie and others.

Seven noble families fight for control of the mythical land of Westeros. Political and sexual intrigue abound. The primary families are the Stark, Lannister, and Baratheon families. Robert Baratheon, King of Westeros, asks his old friend Eddard Stark to serve as his chief advisor. Eddard, suspecting that his predecessor had been murdered, accepts so that he can investigate further. It turns out more than one family is plotting to take the throne. The Queen's family, the Lannisters, may be hatching a plot to take control. Across the sea, the last surviving members of the previously deposed ruling family, the Targaryens, are also plotting a return to power. The conflict between these families and others, including the Greyjoys, the Tullys, the Arryns, and the Tyrells, leads to war. Meanwhile, in the north, an ancient evil awakens. Amidst war and the political confusion, a brotherhood of misfits, The Night's Watch, is all that stands between the realms of men and the horrors beyond. 

File Format: .MKV and .AVI
File size: 278 MB and 100 MB
Language: English
Subtitles: Dutch ~ custom by xppx and Pinkgaai (selectable)
Category : Trailer and Preview
Format : -
Source : -
Menu: No
Extras: No
Genre : Drama ~ Fantasy
Weblink : http://www.imdb.com/title/tt0944947/

Video and audio information:
~~~~~~~~~~~~~~~~~~~~~~
Trailer:

ID                               : 2
Format                           : AVC
Format/Info                      : Advanced Video Codec
Format profile                   : High@L3.1
Format settings, CABAC           : Yes
Format settings, ReFrames        : 3 frames
Codec ID                         : V_MPEG4/ISO/AVC
Duration                         : 11mn 45s
Bit rate                         : 2 933 Kbps
Width                            : 1 280 pixels
Height                           : 720 pixels
Display aspect ratio             : 16:9
Frame rate                       : 23.976 fps
Color space                      : YUV
Chroma subsampling               : 4:2:0
Bit depth                        : 8 bits
Scan type                        : Progressive
Bits/(Pixel*Frame)               : 0.133
Stream size                      : 241 MiB (86%)
Writing library                  : x264 core 85 r1442tw
Encoding settings                : cabac=1 / ref=3 / deblock=1:0:0 / analyse=0x3:0x113 / me=hex / subme=6 / psy=1 / psy_rd=1.00:0.00 / mixed_ref=0 / me_range=16 / chroma_me=1 / trellis=1 / 8x8dct=1 / cqm=0 / deadzone=21,11 / fast_pskip=1 / chroma_qp_offset=-2 / threads=30 / sliced_threads=0 / nr=0 / decimate=1 / mbaff=0 / constrained_intra=0 / bframes=6 / b_pyramid=1 / b_adapt=1 / b_bias=0 / direct=1 / wpredb=1 / wpredp=0 / keyint=240 / keyint_min=24 / scenecut=40 / intra_refresh=0 / rc_lookahead=40 / rc=2pass / mbtree=1 / bitrate=2933 / ratetol=1.0 / qcomp=0.60 / qpmin=10 / qpmax=51 / qpstep=4 / cplxblur=20.0 / qblur=0.5 / ip_ratio=1.40 / aq=1:1.00
Language                         : English

Audio
ID                               : 1
Format                           : AC-3
Format/Info                      : Audio Coding 3
Mode extension                   : CM (complete main)
Codec ID                         : A_AC3
Duration                         : 11mn 45s
Bit rate mode                    : Constant
Bit rate                         : 384 Kbps
Channel(s)                       : 2 channels
Channel positions                : Front: L R
Sampling rate                    : 48.0 KHz
Bit depth                        : 16 bits
Compression mode                 : Lossy
Stream size                      : 32.3 MiB (12%)

Preview:

Video
ID                               : 0
Format                           : MPEG-4 Visual
Format profile                   : Advanced Simple@L5
Format settings, BVOP            : 1
Format settings, QPel            : No
Format settings, GMC             : No warppoints
Format settings, Matrix          : Default (H.263)
Muxing mode                      : Packed bitstream
Codec ID                         : XVID
Codec ID/Hint                    : XviD
Duration                         : 14mn 54s
Bit rate                         : 821 Kbps
Width                            : 624 pixels
Height                           : 352 pixels
Display aspect ratio             : 16:9
Frame rate                       : 23.976 fps
Color space                      : YUV
Chroma subsampling               : 4:2:0
Bit depth                        : 8 bits
Scan type                        : Progressive
Compression mode                 : Lossy
Bits/(Pixel*Frame)               : 0.156
Stream size                      : 87.6 MiB (88%)
Writing library                  : XviD 1.2.1 (UTC 2008-12-04)

Audio
ID                               : 1
Format                           : MPEG Audio
Format version                   : Version 1
Format profile                   : Layer 3
Mode                             : Joint stereo
Mode extension                   : MS Stereo
Codec ID                         : 55
Codec ID/Hint                    : MP3
Duration                         : 14mn 54s
Bit rate mode                    : Variable
Bit rate                         : 104 Kbps
Nominal bit rate                 : 128 Kbps
Channel(s)                       : 2 channels
Sampling rate                    : 48.0 KHz
Compression mode                 : Lossy
Stream size                      : 11.1 MiB (11%)
Alignment                        : Aligned on interleaves
Interleave, duration             : 24 ms (0.58 video frame)
Interleave, preload duration     : 510 ms
Writing library                  : LAME3.98r
Encoding settings                : -m j -V 4 -q 2 -lowpass 17 --abr 128

~~~~~~~~~~~~~~~
Hornigold TBS
~~~~~~~~~~~~~~~